Sunday, January 3, 2010

Peabo Bryson & Roberta Flack





















Bryson hit his '80s peak with this hugely successful duet album with Roberta Flack. It did the same thing for her that his album with Natalie Cole had done in the late '70s; Flack was revived as an urban stylist. The single "Tonight I Celebrate My Love" was all over the airwaves and even used on a soap opera. It made it into the pop Top 20 and reached the number five spot on the RB charts. - Ron Wynn, All Music Guide


Peabo Bryson & Roberta Flack - Born To Love (1983)


password if needed: ianodon.tk
Peabo Bryson & Roberta Flack - Born To Love (1983)

01. Tonight, I Celebrate My Love
02. Blame It on Me
03. Heaven Above Me
04. Born to Love
05. Maybe
06. I Just Came Here to Dance
07. Comin' Alive
08. You're Lookin' Like Love to Me
09. Can We Find Love Again

download


===============================


Peabo Bryson & Roberta Flack - Born To Love (1983)
R&B/Soul | EAC Rip | APE + CUE + LOG + Cover | 36 Min | 206.1 Mb
Label: Capitol | Released: July 22, 1983
Born to Love is the first studio album composed of duets between Peabo Bryson and Roberta Flack. It contains the top-ten, Michael Masser-composed R&B hit, "Tonight I Celebrate My Love.

TrackList
01. Tonight I Celebrate My Love (03:31)
02. Blame It On Me (04:15)
03. Heaven Above Me (04:37)
04. Born To Love (04:29)
05. Maybe (03:21)
06. I Just Came Here To Dance (04:03)
07. Comin” Alive (03:36)
08. You”re Looking Like Love To (04:03)
09. Can We Find Love Again (04:31)

Exact Audio Copy V0.99 prebeta 4 from 23. January 2008

EAC , 2. 2009, 15:28

Peabo Bryson & Roberta Flack / Born To Love

: ATAPI DVD DW 8X16X8X16 Adapter: 0 ID: 2

:
:
:
C2 :

: 618
Lead-in Lead-out :
:
:
CRC :
: Win32- Win NT/2000

: WAV-
: 44.100 ; 16 ;

TOC CD

| | | |
———————————————————————
1 | 0:00.00 | 3:31.00 | 0 | 15824
2 | 3:31.00 | 4:15.10 | 15825 | 34959
3 | 7:46.10 | 4:37.32 | 34960 | 55766
4 | 12:23.42 | 4:29.30 | 55767 | 75971
5 | 16:52.72 | 3:21.70 | 75972 | 91116
6 | 20:14.67 | 4:03.50 | 91117 | 109391
7 | 24:18.42 | 3:36.50 | 109392 | 125641
8 | 27:55.17 | 4:03.35 | 125642 | 143901
9 | 31:58.52 | 4:31.48 | 143902 | 164274

C:Documents and SettingsOEM Peabo Bryson & Roberta Flack - Born To Love.wav

100.0 %
100.0 %
CRC 50BE9A52
… OK

AccurateRip:

1 ( 1) [786E2026]
2 ( 1) [81614EE9]
3 ( 1) [4D390E36]
4 ( 1) [12D553CC]
5 ( 1) [5CFD6C47]
6 ( 1) [CA9678F9]
7 ( 1) [A7A88A85]
8 ( 1) [D2C0DB0D]
9 ( 1) [C83F2AB6]

(Hotfile.com)
DOWNLOAD

(Rapidshare.com)
part1.rar
part2.rar

all files are interchangeables :) ENJOY

0 COMMENTZ:

Post a Comment